<?xml version="1.0" standalone="no"?>
<!DOCTYPE svg PUBLIC "-//W3C//DTD SVG 1.1//EN" "http://www.w3.org/Graphics/SVG/1.1/DTD/svg11.dtd" >
<svg xmlns="http://www.w3.org/2000/svg">
<defs>
  <font id="Nucleo" horiz-adv-x="1112">
    <font-face font-family="Nucleo"
      units-per-em="256" ascent="256"
      descent="0" />
    <missing-glyph horiz-adv-x="0" />
    <glyph glyph-name="account"
      unicode="&#xEA04;"
      horiz-adv-x="256" d="M116 243.577C96.489 239.126 80.224 226.367 71.214 208.448C66.055 198.188 64.59 191.72 64.543 179C64.495 166.097 66.56 157.487 72.337 146.5C76.669 138.26 89.626 125.344 98.5 120.419L105.5 116.533L99 115.214C85.554 112.485 69.211 105.604 57.819 97.874C50.152 92.672 35.284 77.874 30.316 70.5C18.652 53.189 11 30.167 11 12.39C11 5.281 11.09 5 13.371 5C15.644 5 15.772 5.384 16.452 14.25C18.505 40.987 28.824 63.657 47.159 81.715C61.85 96.184 78.476 105.123 99.128 109.657C105.951 111.154 111.848 111.491 131 111.478C155.21 111.46 160.109 110.914 173 106.795C180.966 104.249 193.626 98.006 201 92.986C208.353 87.981 220.433 75.952 226.119 67.974C237.578 51.895 245 30.063 245 12.435L245 5L248.069 5L251.137 5L250.501 13.25C249.652 24.263 248.381 30.644 244.776 42C239.385 58.982 232.629 70.225 219.765 83.625C204.512 99.512 185.543 109.998 163 115.002L155.5 116.667L161 119.464C176.761 127.478 188.225 141.18 194.497 159.5C197.126 167.182 197.646 184.001 195.544 193.445C190.28 217.106 170.981 236.994 147.444 243.014C138.51 245.299 124.635 245.548 116 243.577M149.015 237.11C167.375 231.346 183.331 215.377 189.09 197C199.302 164.418 180.265 129.353 147.068 119.596C140.12 117.554 122.518 117.49 115 119.479C93.688 125.117 75.964 143.413 70.9 165C69.092 172.705 69.367 187.304 71.456 194.536C77.701 216.154 95.93 233.699 117.168 238.533C125.615 240.456 140.473 239.792 149.015 237.11" />
    <glyph glyph-name="arrow-down"
      unicode="&#xEA07;"
      horiz-adv-x="256" d="M128 131.255L128 19.51L92.015 55.485C57.771 89.719 55.946 91.375 54.284 89.712C52.622 88.05 54.434 86.069 91.767 48.736L130.997 9.506L169.987 48.487C208.976 87.466 208.977 87.467 206.977 89.467C204.977 91.467 204.976 91.466 168.989 55.489L133 19.51L133 131.255L133 243L130.5 243L128 243L128 131.255" />
    <glyph glyph-name="arrow-left"
      unicode="&#xEA08;"
      horiz-adv-x="256" d="M53.745 164.245L15 125.491L54.27 86.23C91.629 48.88 93.625 47.054 95.286 48.714C96.946 50.374 95.265 52.225 60.77 86.73L24.51 123L136.255 123L248 123L248 125.5L248 128L136.755 128L25.51 128L61.302 163.802C95.704 198.214 97.021 199.671 95.218 201.302C94.187 202.236 93.151 203 92.916 203C92.682 203 75.055 185.56 53.745 164.245" />
    <glyph glyph-name="arrow-right"
      unicode="&#xEA09;"
      horiz-adv-x="256" d="M165.945 201.433C164.818 200.075 169.437 195.072 200.567 163.933L236.49 128L124.745 128L13 128L13 125.5L13 123L124.745 123L236.49 123L200.511 87.011C164.534 51.024 164.533 51.023 166.533 49.023C168.533 47.023 168.534 47.024 207.511 86.011L246.49 125L207.5 164C186.055 185.45 168.225 203 167.877 203C167.529 203 166.66 202.295 165.945 201.433" />
    <glyph glyph-name="arrow-up"
      unicode="&#xEA0A;"
      horiz-adv-x="256" d="M91.547 202.047C52.67 163.16 52.608 163.091 54.5 161L56.395 158.906L92.198 194.698L128 230.49L128 119.245L128 8L130.5 8L133 8L133 119.745L133 231.49L169.302 195.198C203.908 160.602 205.682 158.991 207.267 160.743C208.849 162.491 207.027 164.482 169.71 201.79L130.491 241L91.547 202.047" />
    <glyph glyph-name="at-sign"
      unicode="&#xEA0B;"
      horiz-adv-x="256" d="M118.5 244.388C70.495 237.397 33.981 205.504 20.953 159.187C3.581 97.428 35.913 34.134 95.822 12.621C110.631 7.302 116.051 6.499 137 6.516C155.413 6.531 157.071 6.692 166.75 9.408C176.738 12.211 177.906 13.021 176.092 15.885C175.362 17.039 173.481 16.815 164.857 14.547C152.126 11.2 131.401 10.023 119.264 11.96C69.66 19.872 30.514 58.71 22.964 107.5C14.281 163.616 46.924 218.121 99 234.46C139.061 247.029 184.315 236.717 212.61 208.572C231.292 189.991 241.305 163.044 239.695 135.688C238.171 109.814 227.015 89.056 210.18 80.768C204.226 77.837 202.646 77.5 194.844 77.5C185.176 77.5 182.537 78.691 178.25 84.99L176 88.296L176 134.648L176 181L173.5 181L171 181L171 166.845L171 152.69L167.164 158.595C149.618 185.601 115.432 188.76 94.039 165.352C68.358 137.253 80.134 87.774 115.091 76.895C134.48 70.86 155.227 79.032 167.164 97.405L171 103.31L171 95.702C171 91.518 171.547 86.835 172.216 85.297C178.498 70.849 195.886 67.065 213.419 76.33C224.264 82.062 233.343 92.94 239.12 107.124C248.295 129.649 246.663 162.642 235.244 185.5C224.346 207.314 210.901 220.984 190 231.503C171.357 240.885 158.189 244.121 137 244.528C128.475 244.692 120.15 244.629 118.5 244.388M140.176 174.054C146.463 172.161 155.962 165.057 160.561 158.809C168.007 148.695 169.47 143.637 169.47 128C169.47 112.363 168.007 107.305 160.561 97.191C155.946 90.921 146.419 83.808 140.176 81.971C111.973 73.673 85.611 95.911 85.611 128C85.611 150.229 98.676 169.045 117.994 174.636C123.004 176.085 134.425 175.786 140.176 174.054" />
    <glyph glyph-name="b-eye"
      unicode="&#xEA0E;"
      horiz-adv-x="256" d="M199.461 218.994L177.5 197.06L168.054 200.623C149.497 207.623 132.66 209.502 114.971 206.544C87.504 201.951 64.511 189.118 39.423 164.377C29.689 154.779 15.467 137.53 12.162 131.316C10.504 128.199 10.727 122.431 12.649 118.7C16.046 112.106 27.835 98.086 40.397 85.699L53.379 72.899L34.177 53.677C15.927 35.409 15.06 34.368 16.714 32.714C18.369 31.06 19.432 31.95 38.14 50.64L57.825 70.307L61.663 67.283C74.93 56.828 94.96 47.825 112.359 44.496C150.059 37.282 190.645 53.68 225.605 90.248C237.45 102.638 248.736 117.304 249.979 121.923C251.45 127.383 250.064 130.691 241.659 141.79C227.647 160.292 206.172 180.204 189.25 190.385C185.813 192.453 183 194.446 183 194.814C183 195.182 192.47 204.961 204.045 216.545C224.109 236.625 225.005 237.685 223.256 239.268C221.514 240.845 220.329 239.836 199.461 218.994M146.068 200.405C152.244 198.591 161.068 194.077 165.5 190.465L168.5 188.019L157.3 176.815L146.1 165.611L141.11 167.948C128.377 173.912 112.242 167.352 107.995 154.486C106.282 149.295 107.223 139.384 109.849 134.959L111.951 131.418L100.577 120.077L89.204 108.736L86.009 113.118C73.442 130.354 71.356 152.821 80.608 171.267C87.783 185.569 100.847 196.576 115.251 200.455C122.563 202.424 139.287 202.397 146.068 200.405M86.102 188.45C75.4 177.009 69.702 162.833 69.642 147.5C69.588 133.418 73.624 120.729 81.627 109.827L85.306 104.815L71.285 90.794L57.264 76.773L46.497 87.136C35.503 97.719 20.026 115.989 17.265 121.644C16.402 123.414 15.995 125.845 16.336 127.204C18.315 135.087 48.951 168.102 64.534 179.144C70.948 183.689 90.338 194.928 91.865 194.986C92.065 194.994 89.472 192.052 86.102 188.45M172.5 193C172.84 192.45 172.668 192 172.118 192C171.568 192 170.84 192.45 170.5 193C170.16 193.55 170.332 194 170.882 194C171.432 194 172.16 193.55 172.5 193M186.796 185.558C203.456 175.287 224.453 155.911 237.146 139.095C247.818 124.957 247.819 124.969 235.339 109.276C217.437 86.764 193.971 67.355 173.355 58.007C143.687 44.555 115.37 44.905 85.5 59.095C77.251 63.014 62 72.571 62 73.821C62 74.21 68.036 80.551 75.413 87.913L88.826 101.298L93.833 97.623C104.764 89.599 117.458 85.575 131.536 85.671C142.085 85.744 149.522 87.639 159.5 92.799C167.905 97.145 179.253 108.027 183.694 116C195.793 137.72 194.184 164.331 179.624 183.298C176.094 187.895 175.696 190 178.355 190C179.035 190 182.834 188.001 186.796 185.558M176.851 177.986C201.776 140.659 175.42 91 130.684 91C118.05 91 107.449 94.477 97.118 102.009L92.736 105.204L104.077 116.577L115.418 127.951L118.959 125.849C123.384 123.223 133.295 122.282 138.486 123.995C151.348 128.24 157.912 144.377 151.952 157.102L149.618 162.085L160.542 173.042C166.55 179.069 171.774 184 172.15 184C172.527 184 174.642 181.293 176.851 177.986" />
    <glyph glyph-name="bill"
      unicode="&#xEA0F;"
      horiz-adv-x="256" d="M32 129.441C32 37.264 32.253 14.032 33.25 14.625C33.938 15.033 41.752 20.201 50.617 26.109L66.733 36.851L82.459 26.354C91.109 20.581 98.795 16.091 99.539 16.377C100.283 16.662 107.606 21.386 115.812 26.874L130.731 36.852L146.458 26.355C155.108 20.581 162.795 16.091 163.539 16.377C164.283 16.662 171.606 21.386 179.811 26.874L194.731 36.852L211.865 25.417L229 13.983L229 129.491L229 245L130.5 245L32 245L32 129.441M224 132.012L224 24.025L218.25 27.679C215.088 29.689 208.518 34 203.651 37.259L194.803 43.184L178.786 32.511L162.768 21.839L146.768 32.5L130.768 43.161L114.768 32.5L98.768 21.839L82.769 32.5L66.77 43.16L52.391 33.58C44.482 28.311 37.784 24 37.506 24C37.228 24 37 72.6 37 132L37 240L130.5 240L224 240L224 132.012M117.582 210.569C111.097 207.849 104.195 201.729 100.587 195.5C90.674 178.383 98.209 155.745 116.627 147.313C130.401 141.007 145.395 144.231 156.247 155.833C171.677 172.329 165.959 200.151 145.148 209.831C136.887 213.674 125.698 213.974 117.582 210.569M140.712 205.856C152.708 201.411 160.767 188.982 159.68 176.599C158.956 168.346 154.763 160.545 148.482 155.767C127.201 139.576 97.395 157.744 102.161 184C104.042 194.36 111.222 202.655 121.332 206.149C128.219 208.529 133.723 208.445 140.712 205.856M75 114.5L75 112L109.5 112L144 112L144 114.5L144 117L109.5 117L75 117L75 114.5M171 114.5C171 112.042 171.133 112 179 112C186.867 112 187 112.042 187 114.5C187 116.958 186.867 117 179 117C171.133 117 171 116.958 171 114.5M75 82.5L75 80L109.5 80L144 80L144 82.5L144 85L109.5 85L75 85L75 82.5M171 82.5C171 80.042 171.133 80 179 80C186.867 80 187 80.042 187 82.5C187 84.958 186.867 85 179 85C171.133 85 171 84.958 171 82.5" />
    <glyph glyph-name="c-check"
      unicode="&#xEA1E;"
      horiz-adv-x="256" d="M109.597 243.393C52.644 233.108 11 183.315 11 125.5C11 93.061 23.08 63.841 45.955 40.947C66.381 20.505 91.344 8.751 120 6.081C130.584 5.095 146.259 5.961 155.921 8.066C190.535 15.606 221.119 39.165 237.256 70.719C247.633 91.009 252.009 113.569 249.919 136C247.249 164.656 235.495 189.619 215.053 210.045C197.015 228.068 175.712 239.075 150.29 243.509C139.718 245.352 120.138 245.297 109.597 243.393M153.465 237.528C182.162 231.412 205.45 216.48 222.918 192.997C244.858 163.503 251.058 123.137 238.995 88.324C233.407 72.195 221.631 53.509 210.35 42.868C188.598 22.351 160.335 11 131 11C53.253 11 -1.803 85.955 21.555 160C34.475 200.955 70.012 231.476 113 238.537C123.67 240.289 142.74 239.814 153.465 237.528M152.002 128.502L109.513 86.004L87.953 107.547C67.387 128.098 66.316 129.006 64.73 127.254C63.149 125.507 64.207 124.278 86.29 102.21L109.512 79.004L153.934 123.434C192.452 161.959 198.184 168.074 197.056 169.433C196.34 170.295 195.471 171 195.123 171C194.776 171 175.371 151.876 152.002 128.502" />
    <glyph glyph-name="c-remove"
      unicode="&#xEA23;"
      horiz-adv-x="256" d="M109.597 243.393C52.644 233.108 11 183.315 11 125.5C11 93.061 23.08 63.841 45.955 40.947C66.381 20.505 91.344 8.751 120 6.081C130.584 5.095 146.259 5.961 155.921 8.066C190.535 15.606 221.119 39.165 237.256 70.719C247.633 91.009 252.009 113.569 249.919 136C247.249 164.656 235.495 189.619 215.053 210.045C197.015 228.068 175.712 239.075 150.29 243.509C139.718 245.352 120.138 245.297 109.597 243.393M153.465 237.528C182.162 231.412 205.45 216.48 222.918 192.997C244.858 163.503 251.058 123.137 238.995 88.324C233.407 72.195 221.631 53.509 210.35 42.868C188.598 22.351 160.335 11 131 11C53.253 11 -1.803 85.955 21.555 160C34.475 200.955 70.012 231.476 113 238.537C123.67 240.289 142.74 239.814 153.465 237.528M151.99 150.49L130.517 129L109.272 150.228C89.079 170.404 87.941 171.369 86.286 169.714C84.631 168.059 85.596 166.921 105.772 146.728L127 125.483L105.51 104.01L84.019 82.536L86.019 80.536L88.019 78.536L109.51 100.01L131 121.483L152.272 100.228C172.492 80.025 173.63 79.059 175.286 80.714C176.941 82.37 175.975 83.508 155.772 103.728L134.517 125L155.99 146.49L177.464 167.981L175.464 169.981L173.464 171.981L151.99 150.49" />
    <glyph glyph-name="c-warning"
      unicode="&#xEA24;"
      horiz-adv-x="256" d="M109.597 243.393C52.644 233.108 11 183.315 11 125.5C11 93.061 23.08 63.841 45.955 40.947C66.381 20.505 91.344 8.751 120 6.081C130.584 5.095 146.259 5.961 155.921 8.066C190.535 15.606 221.119 39.165 237.256 70.719C247.633 91.009 252.009 113.569 249.919 136C247.249 164.656 235.495 189.619 215.053 210.045C197.015 228.068 175.712 239.075 150.29 243.509C139.718 245.352 120.138 245.297 109.597 243.393M153.465 237.528C182.162 231.412 205.45 216.48 222.918 192.997C244.858 163.503 251.058 123.137 238.995 88.324C233.407 72.195 221.631 53.509 210.35 42.868C188.598 22.351 160.335 11 131 11C53.253 11 -1.803 85.955 21.555 160C34.475 200.955 70.012 231.476 113 238.537C123.67 240.289 142.74 239.814 153.465 237.528M128 146.5L128 101L130.5 101L133 101L133 146.5L133 192L130.5 192L128 192L128 146.5M127.4 73.564C122.384 71.394 121.299 64.947 125.314 61.174C129.518 57.226 136.001 58.695 137.856 64.016C140.267 70.933 134.175 76.495 127.4 73.564" />
    <glyph glyph-name="calendar-date"
      unicode="&#xEA25;"
      horiz-adv-x="256" d="M69 234.5L69 224L40.029 224L11.058 224L10.779 194.25C10.626 177.887 10.628 129.962 10.785 87.75L11.071 11L131.035 11L251 11L251 117.5L251 224L232 224L213 224L213 221.5L213 219L229 219L245 219L245 192L245 165L130.5 165L16 165L16 192L16 219L42.5 219L69 219L69 205.5L69 192L72 192L75 192L75 218.5L75 245L72 245L69 245L69 234.5M187 234.5L187 224L141.5 224L96 224L96 221.51L96 219.02L141.25 218.76L186.5 218.5L186.779 205.25L187.058 192L189.529 192L192 192L192 218.5L192 245L189.5 245L187 245L187 234.5M245 88L245 16L130.5 16L16 16L16 88L16 160L130.5 160L245 160L245 88M96 112L96 91L72 91L48 91L48 88L48 85L72 85L96 85L96 64L96 43L98.5 43L101 43L101 64L101 85L130.5 85L160 85L160 64L160 43L162.5 43L165 43L165 64L165 85L189 85L213 85L213 88L213 91L189 91L165 91L165 112L165 133L162.5 133L160 133L160 112L160 91L130.5 91L101 91L101 112L101 133L98.5 133L96 133L96 112" />
    <glyph glyph-name="card-edit"
      unicode="&#xEA26;"
      horiz-adv-x="256" d="M27.367 238.583C21.201 236.639 16.36 232.436 13.458 226.504L10.867 221.208L10.954 146.676C11.049 65.86 10.847 68.9 16.568 62.101C18.022 60.374 21.301 57.732 23.855 56.23L28.5 53.5L64.75 53.183L101 52.866L101 55.933L101 59L65.46 59C24.724 59 24.854 58.976 19.122 67.63L16 72.343L16 105.671L16 139L133.5 139L251 139L251 177.782C251 220.07 250.624 223.694 245.539 230.36C243.971 232.416 240.62 235.314 238.094 236.8L233.5 239.5L132.5 239.693C51.877 239.847 30.666 239.623 27.367 238.583M234.5 232.839C237.883 230.966 242.199 226.584 243.878 223.316C244.525 222.057 245 216.021 245 209.066L245 197L130.5 197L16 197L16 208.804C16 220.047 16.134 220.82 18.829 225.054C25.528 235.58 17.763 234.921 132.5 234.695C222.66 234.517 231.768 234.352 234.5 232.839M245 168L245 144L130.5 144L16 144L16 168L16 192L130.5 192L245 192L245 168M177.316 74.746L144.152 41.5L141.077 26.082C139.386 17.602 138.148 10.518 138.326 10.34C138.505 10.162 145.649 11.417 154.203 13.13L169.755 16.244L202.882 49.382L236.009 82.52L223.245 95.256L210.481 107.992L177.316 74.746M48 98.5L48 96L74.5 96L101 96L101 98.5L101 101L74.5 101L48 101L48 98.5M197.259 51.777L166.5 21.031L156.168 18.931C150.485 17.776 145.61 17.057 145.333 17.333C145.057 17.61 145.776 22.485 146.932 28.168L149.034 38.5L179.754 69.243L210.474 99.986L219.247 91.255L228.019 82.523L197.259 51.777" />
    <glyph glyph-name="configuration-tools"
      unicode="&#xEA2F;"
      horiz-adv-x="256" d="M40.327 233.956C31.257 232.162 23.778 224.374 21.969 214.839C20.566 207.438 20.679 41.595 22.092 35.006C23.576 28.085 28.288 22.122 34.936 18.75L40.359 16L130.429 16.01L220.5 16.02L225.5 18.383C231.509 21.224 235.184 24.957 237.919 31C239.919 35.419 239.956 37.118 239.978 125.571L240 215.641L237.25 221.064C233.878 227.712 227.915 232.424 220.994 233.908C214.919 235.211 46.899 235.255 40.327 233.956M222.685 227.936C226.176 226.618 230.645 222.464 232.839 218.5C234.344 215.782 234.529 207.336 234.814 128.5C235.042 65.338 234.811 40.036 233.972 36.158C232.377 28.791 227.209 23.623 219.842 22.028C215.964 21.189 190.662 20.958 127.5 21.186C47.886 21.473 40.237 21.644 37.398 23.199C32.952 25.635 28.195 31.421 27.51 35.229C27.186 37.028 27.051 78.846 27.21 128.157L27.5 217.815L30.525 221.552C37.011 229.566 29.443 229 130.169 229C191.115 229 220.772 228.659 222.685 227.936M176 179L176 155L178.5 155L181 155L181 165.5L181 176L194.5 176L208 176L208 178.471L208 180.942L194.75 181.221L181.5 181.5L181.216 192.25C180.934 202.934 180.917 203 178.466 203L176 203L176 179M53 178.5L53 176L101 176L149 176L149 178.5L149 181L101 181L53 181L53 178.5M80 138.5L80 128L66.5 128L53 128L53 125.5L53 123L66.5 123L80 123L80 112C80 101.062 80.014 101 82.395 101C84.768 101 84.792 101.106 85.145 113C85.34 119.6 85.34 130.4 85.145 137C84.792 148.894 84.768 149 82.395 149C80.02 149 80 148.91 80 138.5M112 125.5L112 123L160 123L208 123L208 125.5L208 128L160 128L112 128L112 125.5M176 72L176 48L178.5 48L181 48L181 58.5L181 69L194.5 69L208 69L208 72L208 75L194.5 75L181 75L181 85.5L181 96L178.5 96L176 96L176 72M53 72L53 69L101 69L149 69L149 72L149 75L101 75L53 75L53 72" />
    <glyph glyph-name="contact-list"
      unicode="&#xEA30;"
      horiz-adv-x="256" d="M154.341 233.949C130.229 229.713 111.936 207.996 112.017 183.701C112.078 165.658 123.502 142.673 137.656 132.117C147.415 124.838 151.064 123.578 162.5 123.537C171.235 123.505 173.196 123.829 178 126.099C198.048 135.571 212.964 160.266 212.973 184C212.984 211.015 193.314 232.08 165.983 234.323C162.417 234.616 157.179 234.447 154.341 233.949M176.187 227.024C195.045 221.199 208 203.317 208 183.111C208 164.049 193.411 139.758 177.155 131.756C171.341 128.893 169.573 128.502 162.521 128.519C155.809 128.534 153.571 128.99 148.808 131.314C129.034 140.96 114.574 168.934 118.044 190.826C122.395 218.274 149.627 235.228 176.187 227.024M11 200L11 197L48 197L85 197L85 200L85 203L48 203L11 203L11 200M11 146.5L11 144L48 144L85 144L85 146.5L85 149L48 149L11 149L11 146.5M11 93.5L11 91L32 91L53 91L53 93.5L53 96L32 96L11 96L11 93.5M143 94.872C129.915 93.544 118.661 91.146 105.204 86.819C89.452 81.753 84.205 77.814 78.751 66.961L75.001 59.5L75.001 40.25L75 21L163.119 21L251.237 21L250.825 40.25C250.436 58.45 250.271 59.81 247.796 65.175C244.512 72.297 237.946 79.496 232.04 82.45C211.871 92.54 173.191 97.936 143 94.872M190 88.447C200.893 86.865 215.917 83.178 224.153 80.066C232.739 76.82 238.325 72.038 241.911 64.863C244.973 58.735 245 58.541 245 42.84L245 27L162.433 27L79.865 27L80.183 43.25C80.474 58.188 80.698 59.888 82.954 64.304C87.322 72.854 93.106 77.208 105.546 81.313C132.753 90.29 160.926 92.67 190 88.447" />
    <glyph glyph-name="contactless-card"
      unicode="&#xEA31;"
      horiz-adv-x="256" d="M22.684 206.551C17.904 204.847 15.31 202.525 12.894 197.79C11.086 194.248 11 190.719 11 120C11 47.652 11.047 45.828 13.02 41.961C14.131 39.784 16.91 36.764 19.196 35.251L23.353 32.5L128.427 32.214C206.149 32.003 234.607 32.232 237.751 33.094C242.893 34.505 248.408 40.205 249.928 45.679C251.383 50.921 251.394 189.039 249.94 194.277C248.608 199.073 243.723 204.671 239.233 206.547C234.211 208.645 28.567 208.649 22.684 206.551M237.712 200.898C245.422 197.165 245 201.844 245 120C245 40.311 245.219 43.409 239.301 39.398C236.601 37.569 232.768 37.49 133.175 37.232C66.412 37.058 28.532 37.318 26.127 37.966C24.08 38.517 21.076 40.355 19.452 42.05L16.5 45.131L16.5 119.985L16.5 194.839L19 197.547C24.183 203.161 19.19 202.919 130.434 202.961C233.036 203 233.383 202.993 237.712 200.898M193.174 175.409L190.988 173.878L194.098 169.357C197.893 163.842 200.566 156.474 201.977 147.646C203.77 136.419 200.638 123.148 193.874 113.317C190.942 109.055 190.889 108.8 192.654 107.462C193.669 106.693 194.805 106.049 195.178 106.032C196.459 105.972 202.827 117.507 204.867 123.586C210.331 139.858 207.96 157.936 198.489 172.22C195.49 176.742 195.268 176.876 193.174 175.409M53 146.5L53 128L74.5 128L96 128L96 146.5L96 165L74.5 165L53 165L53 146.5M91 146.5L91 133L75 133L59 133L59 146.5L59 160L75 160L91 160L91 146.5M167.389 156.136C165.316 154.532 165.314 154.494 167.217 151.92C171.353 146.327 171.508 138.734 167.633 131.659C165.543 127.843 165.542 127.808 167.503 126.374C169.253 125.095 169.631 125.133 170.838 126.716C177.201 135.058 177.486 145.813 171.578 154.627C169.585 157.602 169.38 157.676 167.389 156.136M136.5 150.839C132.849 148.832 131.045 145.648 131.022 141.173C130.966 130.201 145.847 126.837 150.883 136.684C153.021 140.865 152.235 144.965 148.6 148.6C144.978 152.222 140.516 153.048 136.5 150.839M53 77.5L53 75L93 75L133 75L133 77.5L133 80L93 80L53 80L53 77.5M171 77.5L171 75L189.5 75L208 75L208 77.5L208 80L189.5 80L171 80L171 77.5" />
    <glyph glyph-name="contacts"
      unicode="&#xEA32;"
      horiz-adv-x="256" d="M42.75 245.225L27 244.949L27 124.975L27 5L107.75 5.006C154.596 5.009 190.962 5.415 194.364 5.972C206.073 7.89 215.873 15.227 220.819 25.78L223.5 31.5L223.775 122.906C224.075 222.242 224.185 220.006 218.578 228.869C214.918 234.654 207.798 240.558 201.752 242.82C196.316 244.854 194.326 244.918 127.333 245.205C89.475 245.367 51.413 245.376 42.75 245.225M59 125.5L59 11L45.5 11L32 11L32 125.5L32 240L45.5 240L59 240L59 125.5M202.543 236.482C209.163 233.096 215.215 226.114 217.262 219.5C218.208 216.444 218.5 194.015 218.5 124.5L218.5 33.5L216.114 28.221C214.696 25.081 211.754 21.166 208.858 18.563C200.152 10.735 202.939 11 129.322 11L64 11L64 125.527L64 240.055L130.322 239.777L196.644 239.5L202.543 236.482M96 176L96 149L141.5 149L187 149L187 176L187 203L141.5 203L96 203L96 176M240 184L240 165L242.5 165L245 165L245 184L245 203L242.5 203L240 203L240 184M181 176L181 155L141 155L101 155L101 176L101 197L141 197L181 197L181 176M240 114.5L240 96L242.5 96L245 96L245 114.5L245 133L242.5 133L240 133L240 114.5M96 120L96 117L141.5 117L187 117L187 120L187 123L141.5 123L96 123L96 120" />
    <glyph glyph-name="delete-forever"
      unicode="&#xEA35;"
      horiz-adv-x="256" d="M91 224L91 203L53.5 203L16 203L16 200L16 197L130.5 197L245 197L245 200L245 203L208 203L171 203L171 224L171 245L131 245L91 245L91 224M165 221.5L165 203L130.5 203L96 203L96 221.5L96 240L130.5 240L165 240L165 221.5M48.225 96.75L48.5 22.5L50.745 18.3C53.806 12.572 60.863 7.378 67.438 6.013C71.05 5.263 92.262 5.006 134.118 5.207C194.859 5.497 195.542 5.523 199.5 7.662C201.7 8.852 204.94 11.327 206.699 13.162C213.271 20.019 213 16.388 213 97.468L213 171L210.5 171L208 171L208 97.838L208 24.676L205.598 20.588C204.276 18.34 201.689 15.375 199.848 14L196.5 11.5L132.5 11.217C97.3 11.061 67.496 11.18 66.268 11.481C63.271 12.217 57.296 17.57 55.199 21.398C53.652 24.223 53.475 31.038 53.219 97.75L52.938 171L50.444 171L47.951 171L48.225 96.75M96.727 127.25C95.146 125.504 95.857 124.621 111.032 109.468L127.001 93.523L110.956 77.456C95.641 62.12 94.995 61.314 96.75 59.727C98.496 58.146 99.354 58.831 114.032 73.532C122.526 82.039 129.937 89 130.5 89C131.063 89 138.474 82.039 146.968 73.532C161.645 58.832 162.504 58.146 164.25 59.726C166.004 61.314 165.382 62.096 150.544 76.956C141.995 85.518 135 92.973 135 93.523C135 94.074 141.961 101.474 150.468 109.968C165.168 124.645 165.854 125.504 164.274 127.25C162.686 129.004 161.904 128.382 147.044 113.544C138.482 104.995 131.037 98 130.5 98C129.963 98 122.518 104.995 113.956 113.544C99.097 128.381 98.314 129.004 96.727 127.25" />
    <glyph glyph-name="delivery-time"
      unicode="&#xEA36;"
      horiz-adv-x="256" d="M51.5 243.133C42.194 240.459 35.129 236.162 27.47 228.517C16.175 217.244 11 204.926 11 189.316C11 169.959 20.494 152.747 37.085 142.024C46.326 136.051 54.421 133.783 66.5 133.783C77.679 133.783 85.822 135.847 94.5 140.878C109.136 149.365 119.831 165.055 121.814 180.951L122.507 186.5L141.253 186.772L160 187.044L160 135.022L160 83L162.5 83L165 83L165 116L165 149L194.917 149L224.834 149L234.917 118.75L245 88.499L245 65.75L245 43L234.017 43L223.034 43L220.606 47.75C211.409 65.745 187.937 69.309 173.852 54.848C171.255 52.181 168.56 48.425 167.864 46.5L166.598 43L133.768 43C103.378 43 100.896 43.13 100.384 44.75C97.342 54.371 91.446 61.72 83.54 65.746C77.523 68.81 66.389 69.908 60.387 68.029C50.762 65.016 41.34 55.691 38.949 46.809L37.923 43L26.961 43L16 43L16 84L16 125L13.5 125L11 125L11 81L11 37L23.893 37C37.717 37 38 36.891 38 31.578C38 27.969 43.779 17.401 47.575 14.069C60.882 2.385 80.073 2.83 91.98 15.099C96.734 19.998 100.099 26.699 100.763 32.591L101.26 37L133.023 37L164.786 37L165.828 31.089C167.78 20.004 173.285 12.59 182.796 8.236C188.81 5.483 196.971 4.942 203.688 6.853C213.706 9.702 222.718 21.015 223.781 32.075L224.254 37L237.627 37L251 37L251 62.234L251 87.468L239.761 121.234L228.522 155L196.761 155L165 155L165 173.48L165 191.96L143.75 192.23L122.5 192.5L121.876 197.613C119.297 218.745 102.039 237.848 80.448 243.472C72.755 245.475 59.095 245.316 51.5 243.133M83.5 236.938C112.826 226.076 125.461 193.573 111.26 165.53C107.805 158.708 98.068 148.844 91.199 145.208C71.635 134.851 48.887 137.41 32.92 151.763C3 178.658 15.496 228.559 54.634 238.481C62.682 240.521 75.706 239.825 83.5 236.938M64 200L64 187L77.5 187L91 187L91 189.5L91 192L80 192L69 192L69 202.5L69 213L66.5 213L64 213L64 200M76.177 62.967C86.356 60.14 94.596 50.311 95.693 39.689C97.261 24.497 84.948 11.02 69.5 11.02C54.641 11.02 43.02 22.641 43.02 37.5C43.02 54.805 59.63 67.563 76.177 62.967M206.324 55.175C213.837 51.167 218.193 43.83 218.246 35.094C218.355 17.121 200.681 5.747 184.5 13.377C178.542 16.187 175.826 18.952 173.084 25C169.138 33.704 170.834 44.094 177.301 50.835C185.211 59.081 195.98 60.692 206.324 55.175" />
    <glyph glyph-name="door-3"
      unicode="&#xEA3B;"
      horiz-adv-x="256" d="M103.5 232.077L43.5 218.348L43.245 125.397L42.99 32.446L101.745 19.138C134.06 11.819 161.512 5.595 162.75 5.307L165 4.783L165 125.392C165 191.726 164.662 245.956 164.25 245.903C163.838 245.85 136.5 239.628 103.5 232.077M160 125.18L160 11.36L104.25 24.003L48.5 36.647L48.245 125.24L47.989 213.833L57.745 216.061C63.11 217.286 87.525 222.896 112 228.527C136.475 234.158 157.287 238.819 158.25 238.883C159.907 238.994 160 232.958 160 125.18M187 221.5L187 219L200 219L213 219L213 125.5L213 32L200 32L187 32L187 29.5L187 27L203 27L219 27L219 125.5L219 224L203 224L187 224L187 221.5M128 104L128 91L130.5 91L133 91L133 104L133 117L130.5 117L128 117L128 104" />
    <glyph glyph-name="down-arrow"
      unicode="&#xEA3C;"
      horiz-adv-x="256" d="M21.943 180.431C20.813 179.069 27.932 171.57 75.819 123.683L130.998 68.505L185.987 123.487C240.975 178.468 240.976 178.469 238.976 180.469C236.976 182.469 236.975 182.468 183.734 129.234L130.493 76L77.5 129C48.354 158.15 24.223 182 23.876 182C23.529 182 22.659 181.294 21.943 180.431" />
    <glyph glyph-name="e-add"
      unicode="&#xEA40;"
      horiz-adv-x="256" d="M128 181.5L128 128L74.5 128L21 128L21 125.5L21 123L74.5 123L128 123L128 69.5L128 16L130.491 16L132.982 16L133.241 69.25L133.5 122.5L186.75 122.759L240 123.018L240 125.509L240 128L186.5 128L133 128L133 181.5L133 235L130.5 235L128 235L128 181.5" />
    <glyph glyph-name="e-remove"
      unicode="&#xEA41;"
      horiz-adv-x="256" d="M167.989 166.489L130.51 129L93.27 166.23C57.845 201.646 55.946 203.374 54.286 201.714C52.626 200.054 54.354 198.155 89.77 162.73L127 125.49L89.511 88.011C52.023 50.533 52.023 50.533 54.023 48.533C56.023 46.533 56.023 46.533 93.511 84.011L131 121.49L168.27 84.23C203.726 48.784 205.626 47.054 207.286 48.714C208.946 50.374 207.216 52.274 171.77 87.73L134.51 125L171.989 162.489C209.467 199.977 209.467 199.977 207.467 201.977L205.467 203.977L167.989 166.489" />
    <glyph glyph-name="email-open"
      unicode="&#xEA46;"
      horiz-adv-x="256" d="M70.5 199.619L11.5 159.277L11.5 92.889L11.5 26.5L14.523 22.023C16.185 19.56 19.56 16.185 22.023 14.523L26.5 11.5L128.5 11.2C201.011 10.987 231.602 11.221 234.312 12.009C239.367 13.479 245.822 19.427 248.41 25C250.452 29.397 250.506 30.982 250.78 94L251.059 158.5L191.78 198.904C159.176 221.127 131.825 239.455 131 239.634C130.175 239.813 102.95 221.806 70.5 199.619M187.292 195.527C230.311 166.194 242.7 157.292 241.741 156.403C238.528 153.423 132.315 81.67 131 81.591C130.175 81.541 104.41 98.558 73.746 119.408L17.991 157.315L24.246 161.532C27.685 163.852 53 181.105 80.5 199.872C108 218.639 130.748 233.883 131.051 233.747C131.354 233.611 156.663 216.412 187.292 195.527M54.5 125.99C74.3 112.445 99.562 95.213 110.638 87.696L130.776 74.028L167.638 99.312C187.912 113.219 213.613 130.791 224.75 138.361L245 152.125L245 91.022C245 31.695 244.941 29.805 242.98 25.961C241.869 23.784 239.09 20.764 236.803 19.251L232.646 16.5L130.573 16.5L28.5 16.5L24.922 18.922C22.954 20.254 20.254 22.954 18.922 24.922L16.5 28.5L16.221 90.327C15.995 140.337 16.186 152.007 17.221 151.385C17.924 150.962 34.7 139.534 54.5 125.99" />
    <glyph glyph-name="eye"
      unicode="&#xEA47;"
      horiz-adv-x="256" d="M113.5 206.392C87.069 201.673 63.94 188.555 39.423 164.377C29.689 154.779 15.467 137.53 12.162 131.316C10.504 128.199 10.727 122.431 12.649 118.7C18.115 108.091 42.694 81.652 57.737 70.2C97.401 40.006 138.033 34.795 178.623 54.695C200.358 65.351 223.324 85.076 241.815 108.969C249.527 118.934 251.52 123.702 250.076 128.734C247.633 137.254 219.649 168.41 203.5 180.591C173.871 202.939 143.279 211.709 113.5 206.392M146.068 200.405C154.977 197.788 163.104 192.896 170 186C181.067 174.933 186.313 162.23 186.345 146.425C186.429 104.766 141.65 77.891 104.5 97.304C96.748 101.355 85.355 112.748 81.304 120.5C68.761 144.502 75.276 174.613 96.5 190.73C102.787 195.504 110.737 199.489 116.87 200.94C123.24 202.447 140.171 202.137 146.068 200.405M86.353 188.719C75.519 177.137 69.777 162.962 69.671 147.536C69.594 136.202 71.093 129.761 76.313 119C82.013 107.253 91.253 98.013 103 92.313C113.761 87.093 120.202 85.594 131.536 85.671C148.137 85.785 161.787 91.658 174.018 103.946C197.587 127.626 197.878 165.038 174.681 189.018C172.03 191.758 170.13 194 170.459 194C171.983 194 184.29 187.257 191.5 182.47C208.286 171.328 225.072 155.239 238.316 137.598C247.662 125.149 247.616 124.714 235.339 109.276C217.437 86.764 193.971 67.355 173.355 58.007C143.733 44.576 114.788 44.926 85.686 59.068C66.163 68.555 44.268 86.889 27.281 107.974C17.641 119.939 15.47 123.753 16.336 127.204C18.315 135.087 48.951 168.102 64.534 179.144C70.948 183.689 90.338 194.928 91.865 194.986C92.065 194.994 89.585 192.173 86.353 188.719M125.718 169.93C120.092 168.573 116.751 166.574 112.796 162.195C108.126 157.027 106.628 152.227 107.253 144.438C108.194 132.714 116.714 124.194 128.438 123.253C136.255 122.625 141.022 124.125 146.291 128.871C156.588 138.145 157.121 153.813 147.467 163.467C141.742 169.192 133.192 171.733 125.718 169.93" />
    <glyph glyph-name="fairy-wand"
      unicode="&#xEA48;"
      horiz-adv-x="256" d="M149 213.169L149 190.338L130.923 177.445L112.845 164.552L132.173 158.139C142.803 154.612 151.706 151.545 151.957 151.323C152.208 151.101 122.742 121.245 86.476 84.976C23.719 22.214 20.623 18.949 22.286 17.286C23.949 15.623 27.214 18.719 89.976 81.476C126.245 117.742 156.104 147.208 156.329 146.957C156.555 146.706 159.601 137.838 163.1 127.25C166.598 116.662 169.694 108.014 169.98 108.031C170.266 108.048 176.327 116.148 183.448 126.031L196.396 144L218.698 144C230.964 144 241 144.253 241 144.563C241 144.872 235.241 153.095 228.201 162.835L215.402 180.545L222.186 202.022C225.916 213.835 228.976 223.561 228.985 223.636C228.993 223.711 219.445 220.691 207.766 216.925C187.526 210.397 186.418 210.152 184.089 211.678C182.745 212.558 174.518 218.391 165.806 224.639C157.094 230.888 149.749 236 149.483 236C149.217 236 149 225.726 149 213.169M52.777 227.71C51.406 215.548 40.485 204.598 28.364 203.232C24.394 202.784 24 202.493 24 200C24 197.514 24.398 197.215 28.29 196.777C40.452 195.406 51.402 184.485 52.768 172.364C53.216 168.394 53.507 168 56 168C58.493 168 58.784 168.394 59.232 172.364C60.598 184.485 71.548 195.406 83.71 196.777C87.602 197.215 88 197.514 88 200C88 202.493 87.606 202.784 83.636 203.232C71.515 204.598 60.594 215.548 59.223 227.71C58.785 231.602 58.486 232 56 232C53.514 232 53.215 231.602 52.777 227.71M170.57 214.466L185 203.932L202.162 209.466C211.6 212.51 219.644 215 220.037 215C220.43 215 218.333 207.505 215.376 198.343C212.419 189.182 210 181.096 210 180.375C210 179.654 214.758 172.412 220.574 164.282L231.148 149.5L212.172 149L193.196 148.5L182.429 133.753L171.661 119.007L165.708 136.815L159.754 154.624L142.377 160.385C132.82 163.553 125 166.3 125 166.488C125 166.676 131.75 171.631 140 177.5L155 188.17L155 206.585C155 216.713 155.256 225 155.57 225C155.883 225 162.633 220.26 170.57 214.466M58.387 214.219C59.856 211.377 67.927 203.342 71.511 201.151C73.495 199.939 73.495 199.933 71.5 198.718C68.744 197.04 58.557 186.946 57.15 184.5L56 182.5L54.85 184.5C53.443 186.946 43.256 197.04 40.5 198.718C38.505 199.933 38.505 199.939 40.489 201.151C44.073 203.342 52.144 211.377 53.613 214.219C54.404 215.748 55.478 217 56 217C56.522 217 57.596 215.748 58.387 214.219M202.63 80.75C202.299 79.512 202.021 77.593 202.014 76.485C201.995 73.664 198.386 67.126 194.65 63.141C190.029 58.213 185.143 55.399 178.707 53.959C173.753 52.85 173 52.373 173 50.341C173 48.513 173.546 48 175.489 48C179.364 48 187.529 44.541 191.984 41.013C196.994 37.044 200.578 31.065 202.045 24.227C203.021 19.675 203.478 19 205.583 19C207.485 19 208 19.525 208 21.462C208 26.439 211.971 34.602 216.684 39.316C221.398 44.029 229.561 48 234.538 48C236.475 48 237 48.515 237 50.417C237 52.522 236.325 52.979 231.773 53.955C224.935 55.422 218.956 59.006 214.987 64.016C211.459 68.471 208 76.636 208 80.511C208 83.901 203.528 84.1 202.63 80.75M212.35 59.12C214.082 57.261 217.414 54.504 219.753 52.992L224.005 50.245L220.877 48.949C216.845 47.279 208.721 39.155 207.051 35.123L205.755 31.995L203.046 36.247C200.048 40.953 193.197 47.497 189.513 49.176C187.189 50.235 187.271 50.362 193.049 54.615C196.303 57.01 200.425 61.177 202.21 63.875L205.456 68.779L207.328 65.64C208.357 63.913 210.617 60.979 212.35 59.12" />
    <glyph glyph-name="file-play"
      unicode="&#xEA49;"
      horiz-adv-x="256" d="M32 125L32 5L130.5 5L229 5L229 125L229 245L130.5 245L32 245L32 125M224 125.5L224 11L130.5 11L37 11L37 125.5L37 240L130.5 240L224 240L224 125.5M96 125.057C96 85.913 96.228 78.037 97.34 78.7C109.001 85.66 172.956 125.366 172.764 125.526C171.766 126.361 98.241 171.35 97.25 171.732C96.261 172.113 96 162.373 96 125.057M129.638 145.838C144.962 136.399 158.73 127.926 160.234 127.009L162.969 125.341L132.605 106.67C115.904 96.402 101.961 88 101.62 88C101.279 88 101 104.875 101 125.5C101 146.125 101.174 163 101.388 163C101.601 163 114.313 155.277 129.638 145.838" />
    <glyph glyph-name="folder-link"
      unicode="&#xEA4A;"
      horiz-adv-x="256" d="M11 134.707L11 34.393L13.573 29.229C16.437 23.482 22.323 18.529 28.154 16.958C30.526 16.32 68.016 16.059 132.676 16.231L233.5 16.5L237.636 18.712C243.111 21.64 248.044 28.042 249.677 34.335C250.718 38.35 251 55.681 251 115.718L251 192L188.75 192.036L126.5 192.072L113.47 213.286L100.44 234.5L55.72 234.76L11 235.021L11 134.707M110.5 208L123.5 187.027L184.25 187.013L245 187L245 110.95C245 46.498 244.779 34.473 243.551 32.099C241.649 28.421 235.671 23.227 232.232 22.264C230.729 21.844 184.5 21.5 129.5 21.5C30.677 21.5 29.459 21.524 26 23.539C24.075 24.66 21.037 27.749 19.25 30.402L16 35.226L16 132.113L16 229L56.75 228.987L97.5 228.973L110.5 208M59.898 141.73C53.114 137.198 52.911 136.017 53.222 102.953C53.53 70.238 53.563 70.067 60.304 65.956C63.207 64.186 65.451 64.007 84.782 64.004C108.63 64 111.567 64.601 114.974 70.19C116.084 72.01 116.994 74.963 116.996 76.75C116.999 79.551 116.655 80 114.5 80C112.423 80 112 79.522 112 77.174C112 75.431 111.012 73.42 109.422 71.924C106.912 69.564 106.351 69.492 88.173 69.186C67.11 68.831 63.824 69.199 60.996 72.235C59.094 74.276 59 75.779 59 104.189C59 132.382 59.106 134.106 60.944 135.944C63.778 138.778 67.434 139.164 88.148 138.814C108.981 138.463 110.341 138.031 111.592 131.363C112.099 128.66 112.692 128 114.611 128C116.554 128 117 128.517 117 130.766C117 134.984 113.719 140.301 109.915 142.248C106.975 143.754 103.493 143.997 84.898 143.998C64.103 144 63.169 143.915 59.898 141.73M152.5 143.067C148.65 141.413 144.857 136.353 144.288 132.112C143.769 128.238 143.882 128 146.257 128C148.352 128 148.89 128.599 149.443 131.548C149.917 134.074 151.029 135.657 153.304 137.044C156.18 138.797 158.434 138.993 175.8 138.996C196.874 139 200.177 138.294 202.043 133.387C202.569 132.003 202.998 118.637 202.996 103.685C202.993 78.503 202.849 76.265 201.044 73.304C198.475 69.09 196.562 68.806 173.352 69.186C151.964 69.537 150.664 69.941 149.408 76.637C148.901 79.34 148.308 80 146.389 80C144.654 80 144 79.444 144 77.968C144 74.754 146.501 69.723 149.452 67L152.161 64.5L176.064 64.5L199.967 64.5L203.733 68.267L207.5 72.033L207.5 104L207.5 135.967L203.735 139.733L199.971 143.5L177.235 143.713C164.731 143.831 153.6 143.54 152.5 143.067M91 104L91 101L131 101L171 101L171 104L171 107L131 107L91 107L91 104" />
    <glyph glyph-name="gold"
      unicode="&#xEA4F;"
      horiz-adv-x="256" d="M128 226.5L128 208L130.5 208L133 208L133 226.5L133 245L130.5 245L128 245L128 226.5M45.725 210.248C44.145 208.503 44.726 207.747 57.337 195.163C70.014 182.511 70.687 181.997 72.275 183.752C73.855 185.497 73.274 186.253 60.663 198.837C47.986 211.489 47.313 212.003 45.725 210.248M200.193 198.694L186.914 185.387L189 183.5C191.075 181.622 191.15 181.677 204.512 195.012C217.144 207.618 217.842 208.517 216.314 210.205C215.421 211.192 214.416 212 214.081 212C213.746 212 207.497 206.012 200.193 198.694M96.116 157.75C95.656 156.513 90.836 142.113 85.403 125.75L75.525 96L59.502 96L43.478 96L32.139 61.933C25.902 43.197 20.965 27.701 21.168 27.499C21.568 27.099 103.031 26.821 187.67 26.931L240.84 27L229.343 61.476L217.846 95.951L201.75 96.226L185.653 96.5L175.088 128.25L164.523 160L130.737 160L96.95 160L96.116 157.75M169.907 126.75C175.066 111.213 179.496 97.937 179.751 97.25C180.117 96.261 169.888 96 130.684 96L81.154 96L90.575 124.25C95.756 139.787 100.208 153.062 100.467 153.75C100.829 154.711 107.814 155 130.732 155L160.527 155L169.907 126.75M11 125.5L11 123L29.5 123L48 123L48 125.5L48 128L29.5 128L11 128L11 125.5M213 125.5L213 123L232 123L251 123L251 125.5L251 128L232 128L213 128L213 125.5M107.612 89.621C107.673 89.555 112.025 76.562 117.283 60.75L126.842 32L77.314 32C38.111 32 27.883 32.261 28.249 33.25C28.504 33.937 32.94 47.244 38.106 62.82L47.5 91.141L77.5 90.442C94 90.057 107.55 89.688 107.612 89.621M148 90.25C148 89.838 144.101 77.802 139.335 63.504L130.669 37.507L122.326 62.504C117.737 76.252 113.731 88.287 113.424 89.25C112.906 90.871 114.156 91 130.433 91C140.095 91 148 90.663 148 90.25M223.417 62.25C228.688 46.437 233 33.162 233 32.75C233 32.337 210.95 32 184 32C157.05 32 135 32.344 135 32.763C135 33.183 139.2 46.121 144.334 61.513L153.668 89.5L171.084 90.036C180.663 90.331 194.2 90.668 201.167 90.786L213.834 91L223.417 62.25" />
    <glyph glyph-name="gold-coin"
      unicode="&#xEA50;"
      horiz-adv-x="256" d="M109.597 243.393C52.644 233.108 11 183.315 11 125.5C11 93.061 23.08 63.841 45.955 40.947C66.381 20.505 91.344 8.751 120 6.081C130.584 5.095 146.259 5.961 155.921 8.066C190.535 15.606 221.119 39.165 237.256 70.719C247.633 91.009 252.009 113.569 249.919 136C247.249 164.656 235.495 189.619 215.053 210.045C197.015 228.068 175.712 239.075 150.29 243.509C139.718 245.352 120.138 245.297 109.597 243.393M153.465 237.528C182.162 231.412 205.45 216.48 222.918 192.997C244.858 163.503 251.058 123.137 238.995 88.324C233.407 72.195 221.631 53.509 210.35 42.868C188.598 22.351 160.335 11 131 11C53.253 11 -1.803 85.955 21.555 160C34.475 200.955 70.012 231.476 113 238.537C123.67 240.289 142.74 239.814 153.465 237.528M78.728 196.25C77.267 194.634 77.488 194.024 81.618 188.269C85.648 182.655 86.283 182.16 88.045 183.26C89.12 183.932 90 184.817 90 185.227C90 186.221 81.665 197.877 80.905 197.946C80.578 197.976 79.598 197.212 78.728 196.25M177.779 194.706C170.844 185.406 170.858 185.439 172.958 183.538C174.795 181.876 175.035 182.042 179.433 188.016C181.945 191.428 184 194.512 184 194.869C184 195.227 183.138 196.057 182.085 196.715C180.427 197.75 179.848 197.48 177.779 194.706M121.286 168.589L112.143 150.273L101.822 148.697C96.145 147.83 87.675 146.61 83 145.985C78.325 145.361 73.857 144.642 73.072 144.388C72.149 144.09 76.845 138.892 86.328 129.713L101.012 115.5L97.666 95.5C95.825 84.5 94.398 75.387 94.495 75.248C94.591 75.11 102.806 79.3 112.751 84.559L130.832 94.122L148.666 84.614C158.475 79.384 166.604 75.419 166.73 75.803C166.857 76.186 165.432 85.275 163.562 96L160.164 115.5L174.64 129.392C182.602 137.032 188.753 143.605 188.308 143.999C187.657 144.576 152.517 150.052 149.731 150.011C149.308 150.005 144.888 158.207 139.909 168.239C134.93 178.27 130.76 186.573 130.642 186.691C130.524 186.809 126.314 178.663 121.286 168.589M138.061 160.147L145.165 145.295L159.832 143.135C167.9 141.948 175.393 140.981 176.484 140.988C177.902 140.997 175.06 137.582 166.525 129.025L154.581 117.05L157.26 101.328C158.734 92.681 159.759 85.426 159.539 85.205C159.318 84.985 152.757 88.231 144.958 92.418L130.778 100.031L116.317 92.421C108.363 88.235 101.724 84.966 101.563 85.155C101.402 85.345 102.489 92.552 103.979 101.171L106.688 116.843L94.824 128.671L82.961 140.5L90.73 141.615C95.004 142.228 102.49 143.295 107.366 143.985L116.233 145.24L123.286 160.12C127.165 168.304 130.478 175 130.648 175C130.818 175 134.154 168.316 138.061 160.147M52.372 102.672C46.739 100.675 46.312 100.318 47.09 98.25C48.122 95.503 47.82 95.505 56.207 98.206C61.069 99.772 62.903 100.811 62.528 101.788C62.238 102.544 62 103.577 62 104.082C62 105.484 59.112 105.061 52.372 102.672M199.113 102.777C198.349 100.71 198.815 100.388 205.74 98.205C209.837 96.913 213.316 96.001 213.471 96.178C213.625 96.355 214.055 97.487 214.425 98.693C215.038 100.69 214.481 101.07 208.191 102.943C199.714 105.468 200.111 105.475 199.113 102.777M128 45C128 37.133 128.042 37 130.5 37C132.958 37 133 37.133 133 45C133 52.867 132.958 53 130.5 53C128.042 53 128 52.867 128 45" />
    <glyph glyph-name="hammer"
      unicode="&#xEA53;"
      horiz-adv-x="256" d="M149.741 207.241L115.993 173.482L131.255 158.244L146.518 143.006L157.257 153.746L167.997 164.485L189.495 143.005L210.994 121.524L223.5 134L236.007 146.477L214.505 167.995L193.003 189.514L203.742 200.254L214.482 210.993L199.503 225.997C191.265 234.248 184.292 241 184.007 241C183.722 241 168.302 225.809 149.741 207.241M195.762 221.739L206.991 210.478L177 180.5L147.01 150.523L135.5 162L123.99 173.478L153.739 203.239C170.101 219.607 183.723 233 184.01 233C184.297 233 189.586 227.933 195.762 221.739M55.944 183.433C54.821 182.079 56.438 180.071 67.806 168.703C80.315 156.195 81.056 155.627 82.709 157.281C84.363 158.935 83.806 159.667 71.489 172.011C64.361 179.155 58.24 185 57.887 185C57.534 185 56.66 184.295 55.944 183.433M208.765 165.735L228.011 146.47L219.241 137.74L210.471 129.01L191.001 148.499L171.532 167.988L179.994 176.494C184.648 181.172 188.695 185 188.988 185C189.28 185 198.18 176.331 208.765 165.735M32 125.5L32 123L50.5 123L69 123L69 125.5L69 128L50.5 128L32 128L32 125.5M11.188 90.75C12.544 74.407 27.231 59.96 49.5 53.063C56.956 50.754 73.714 48.049 80.75 48.018L85 48L85 26.5L85 5L151.88 5L218.76 5L219.193 10.75C220.252 24.801 231.243 35.797 245.25 36.82L251 37.24L251 66.62L251 96L130.876 96L10.752 96L11.188 90.75M85 71.939L85 52.877L80.75 53.397C78.413 53.683 73.575 54.194 70 54.531C45.384 56.854 26.617 67.073 19.011 82.295C17.355 85.608 16 88.923 16 89.66C16 90.754 22.327 91 50.5 91L85 91L85 71.939M245 66.632L245 42.263L241.068 41.736C229.12 40.133 215.872 26.922 214.275 15.015L213.737 11L152.368 11L91 11L91 51L91 91L168 91L245 91L245 66.632" />
    <glyph glyph-name="icons-vip-2"
      unicode="&#xEA56;"
      horiz-adv-x="251.50877192982455" d="M15.719298245614 242.9978049122807H235.7894736842105C237.9596350877193 242.9978049122807 239.7192982456141 241.2383663157895 239.7192982456141 239.0679803508772V18.9978947368421C239.7192982456141 16.8272842105263 237.9596350877193 15.0680701754386 235.7894736842105 15.0680701754386H15.719298245614C13.5489122807018 15.0680701754386 11.7894736842105 16.8272842105263 11.7894736842105 18.9978947368421V239.0679803508772C11.7894736842105 241.2383663157895 13.5489122807018 242.9978049122807 15.719298245614 242.9978049122807zM0 239.0679803508772C0 247.7495242105263 7.0377543859649 254.7872785964913 15.719298245614 254.7872785964913H235.7894736842105C244.4710175438597 254.7872785964913 251.5087719298246 247.7495242105263 251.5087719298246 239.0679803508772V18.9978947368421C251.5087719298246 10.316350877193 244.4710175438597 3.2785964912281 235.7894736842105 3.2785964912281H15.719298245614C7.0377543859649 3.2785964912281 0 10.316350877193 0 18.9978947368421V239.0679803508772zM69.4977122807018 104.5831859649123L47.2248140350877 169.7603368421053H34.1738442105263L62.9719578947368 89.7347368421053H76.9217122807017L105.7199157894737 169.7603368421053H92.6688561403509L70.3964070175439 104.5831859649123H69.4977122807018zM137.0529684210526 89.7347368421053V169.7603368421053H124.978750877193V89.7347368421053H137.0529684210526zM162.3394807017544 169.7603368421053V89.7347368421053H174.413698245614V117.8686877192982H190.8250947368421C197.0247859649123 117.8686877192982 202.1699368421053 119.0018245614035 206.259649122807 121.2680982456141C210.3754105263158 123.5604210526316 213.4492070175439 126.6607157894737 215.4814877192982 130.5680842105263C217.5393684210527 134.501501754386 218.5683087719298 138.929852631579 218.5683087719298 143.8535859649123C218.5683087719298 148.7508210526316 217.5523929824561 153.1531228070176 215.5205614035088 157.0609403508772C213.4882807017544 160.9943578947368 210.4275087719298 164.094203508772 206.3377964912281 166.3604771929825C202.2480842105263 168.6272 197.0899087719298 169.7603368421053 190.8641684210526 169.7603368421053H162.3394807017544zM174.413698245614 128.1064421052632H189.7310315789474C193.664449122807 128.1064421052632 196.8554666666667 128.7837192982456 199.3040842105263 130.1382736842105C201.753150877193 131.5188771929825 203.5505403508772 133.3944140350877 204.696701754386 135.7648842105263C205.8428631578947 138.1353543859649 206.4159438596491 140.8318877192983 206.4159438596491 143.8535859649123C206.4159438596491 146.8752842105263 205.8428631578947 149.5583438596492 204.696701754386 151.9027649122807C203.5505403508772 154.2476350877193 201.7401263157895 156.084098245614 199.2650105263158 157.412603508772C196.8163929824561 158.7411087719298 193.586301754386 159.4053614035088 189.5747368421053 159.4053614035088H174.413698245614V128.1064421052632z" />
    <glyph glyph-name="increase-font-size"
      unicode="&#xEA59;"
      horiz-adv-x="256" d="M11 232L11 229L59 229L107 229L107 122.5L107 16L109.5 16L112 16L112 122.5L112 229L160 229L208 229L208 232L208 235L109.5 235L11 235L11 232M203 149.5L203 128L181.5 128L160 128L160 125.52L160 123.04L181.25 122.77L202.5 122.5L202.77 101.25L203.04 80L205.52 80L208 80L208 101.5L208 123L229.5 123L251 123L251 125.5L251 128L229.5 128L208 128L208 149.5L208 171L205.5 171L203 171L203 149.5" />
    <glyph glyph-name="info"
      unicode="&#xEA5A;"
      horiz-adv-x="256" d="M127.4 233.564C122.384 231.394 121.299 224.947 125.314 221.174C129.518 217.226 136.001 218.695 137.856 224.016C140.267 230.933 134.175 236.495 127.4 233.564M128 98.5L128 16L130.5 16L133 16L133 98.5L133 181L130.5 181L128 181L128 98.5" />
    <glyph glyph-name="jewel"
      unicode="&#xEA5B;"
      horiz-adv-x="256" d="M40.741 215.241L21 195.482L21 125.481L21 55.481L40.759 35.741L60.518 16L131 16L201.481 16L220.741 35.24L240 54.481L240 125L240 195.519L220.241 215.259L200.482 235L130.481 235L60.481 235L40.741 215.241M194 228.496C194 228.219 187.853 218.769 180.34 207.496L166.681 187L130.59 187.023L94.5 187.045L82.5 205.141C75.9 215.094 69.668 224.534 68.652 226.119L66.804 229L130.402 229C165.381 229 194 228.773 194 228.496M75.654 205.62L89.808 184.295L80.751 175.238L71.694 166.181L50.597 180.229C38.994 187.956 29.296 194.456 29.048 194.674C28.563 195.1 60.128 227.018 60.988 226.973C61.27 226.958 67.869 217.35 75.654 205.62M217.401 211.1L233.278 195.199L211.402 180.606L189.527 166.013L180.763 174.736C175.943 179.533 172 183.813 172 184.247C172 185.49 199.936 227 200.773 227C201.186 227 208.668 219.845 217.401 211.1M50.859 173.5L68.955 161.5L68.977 125.41L69 89.319L48.504 75.66C37.231 68.147 27.781 62 27.504 62C27.227 62 27 90.619 27 125.598L27 189.196L29.881 187.348C31.466 186.332 40.906 180.1 50.859 173.5M235 124.885L235 60.77L232.25 62.56C230.738 63.545 221.063 69.968 210.75 76.834L192 89.318L192.025 125.409L192.05 161.5L212.775 175.247C224.174 182.808 233.838 188.995 234.25 188.997C234.662 188.999 235 160.148 235 124.885M177.232 171.269L187 161.538L187 125.501L187 89.464L176.733 79.232L166.466 69L130.501 69L94.536 69L84.768 78.731L75 88.462L75 124.963L75 161.464L84.731 171.232L94.462 181L130.963 181L167.464 181L177.232 171.269M81.264 75.237L89.987 66.473L75.394 44.598L60.801 22.722L44.9 38.599C36.155 47.332 29 54.814 29 55.226C29 56.125 70.055 83.846 71.521 83.937C72.082 83.972 76.467 80.057 81.264 75.237M211.683 69.932C222.583 62.682 231.829 56.455 232.231 56.094C232.633 55.734 225.629 48.116 216.667 39.167L200.372 22.894L186.004 44.494L171.635 66.094L180.561 75.061C185.469 79.993 190.021 83.822 190.676 83.571C191.331 83.319 200.784 77.182 211.683 69.932M180.838 42.75L194.987 21.5L131.334 21.243C96.325 21.101 67.458 21.209 67.184 21.483C66.91 21.756 72.944 31.424 80.593 42.967L94.5 63.953L130.595 63.976L166.689 64L180.838 42.75" />
    <glyph glyph-name="leave"
      unicode="&#xEA5C;"
      horiz-adv-x="256" d="M11.245 152.385L11.5 64.77L51 39.348L90.5 13.925L90.767 38.963L91.034 64L120.017 64L149 64L149 89L149 114L146.5 114L144 114L144 91.5L144 69L117.5 69L91 69L91 129.795L91 190.59L57 212.383C38.3 224.369 23 234.361 23 234.588C23 234.815 50.225 235 83.5 235L144 235L144 207L144 179L146.5 179L149 179L149 209.5L149 240L79.995 240L10.989 240L11.245 152.385M54 207.888L84.5 188.219L84.756 106.075L85.012 23.931L79.256 27.602C76.09 29.621 60.563 39.583 44.75 49.74L16 68.208L16 150.186L16 232.163L19.75 229.86C21.813 228.594 37.225 218.706 54 207.888M198.503 191.003C196.614 188.916 196.662 188.857 216.545 168.955L236.481 149L180.741 149L125 149L125 146.5L125 144L180.741 144L236.481 144L216.513 124.013C197.522 105.004 196.63 103.941 198.289 102.282C199.948 100.624 201.17 101.675 223.264 123.769L246.495 147L223.446 170.048L200.398 193.097L198.503 191.003" />
    <glyph glyph-name="left-arrow"
      unicode="&#xEA5D;"
      horiz-adv-x="256" d="M128.5 180L73.507 125L128.488 70.012L183.469 15.024L185.47 17.025L187.471 19.027L134.237 72.261L81.002 125.495L134.18 178.68C180.307 224.813 187.185 232.072 186.056 233.432C185.341 234.294 184.471 235 184.124 235C183.777 235 158.746 210.25 128.5 180" />
    <glyph glyph-name="log-out"
      unicode="&#xEA60;"
      horiz-adv-x="256" d="M96 242.524L96 240.047L153.824 239.774L211.648 239.5L215.164 237.09C217.098 235.765 219.765 233.098 221.09 231.164L223.5 227.647L223.764 126.016L224.028 24.385L220.892 19.65C214.891 10.591 218.102 11 153.04 11L96 11L96 7.955L96 4.909L153.75 5.205C206.76 5.476 211.766 5.645 214.737 7.269C220.28 10.298 225.179 15.252 227.128 19.799C228.916 23.97 229 28.702 229 125.536C229 201.903 228.705 227.596 227.805 229.703C225.619 234.821 220.13 240.718 215.549 242.872C211.095 244.966 210.089 245 153.511 245L96 245L96 242.524M59.243 153.743L31 125.487L59.485 97.015C86.571 69.941 88.057 68.628 89.714 70.285C91.371 71.943 90.205 73.281 65.986 97.514L40.515 123L117.757 123L195 123L195 125.5L195 128L118.257 128L41.515 128L66.803 153.303C91.114 177.628 92.02 178.672 90.217 180.303C89.186 181.236 88.15 182 87.915 182C87.679 182 74.777 169.285 59.243 153.743" />
    <glyph glyph-name="mail"
      unicode="&#xEA65;"
      horiz-adv-x="256" d="M26.753 222.483C20.804 220.298 16.251 216.213 13.502 210.593L10.954 205.386L11.227 123.943L11.5 42.5L14.523 38.023C16.185 35.56 19.56 32.185 22.023 30.523L26.5 27.5L128.5 27.2C201.011 26.987 231.602 27.221 234.312 28.009C239.367 29.479 245.822 35.427 248.41 41C250.465 45.424 250.505 46.801 250.78 122.447C250.974 175.782 250.721 201.028 249.955 204.718C248.468 211.881 243.843 217.812 237.064 221.25L231.641 224L131.071 223.93C48.317 223.872 29.836 223.615 26.753 222.483M234.276 217.078C235.803 216.295 236.928 215.33 236.776 214.933C236.002 212.908 131.32 119.068 130.273 119.46C129.598 119.713 105.385 141.393 76.467 167.639C20.228 218.68 22.537 216.149 30.466 218.08C32.135 218.486 78.05 218.747 132.5 218.66C215.901 218.525 231.937 218.276 234.276 217.078M75.653 161.128L130.5 111.256L133.15 113.378C134.608 114.545 159.249 136.875 187.907 163C216.566 189.125 240.467 210.652 241.021 210.838C241.575 211.024 242.697 209.576 243.514 207.62C244.786 204.576 245 192.68 245 124.992C245 47.636 244.956 45.834 242.98 41.961C241.869 39.784 239.09 36.764 236.803 35.251L232.646 32.5L130.573 32.5L28.5 32.5L24.922 34.922C22.954 36.254 20.254 38.954 18.922 40.922L16.5 44.5L16.219 123.5C15.967 194.224 16.106 202.945 17.551 206.75C18.439 209.087 19.535 211 19.986 211C20.437 211 45.487 188.558 75.653 161.128" />
    <glyph glyph-name="logo-aba"
      unicode="&#xEA66;"
      horiz-adv-x="608" d="M323 78.024C319.76 78.024 315.488 78.024 306.136 78.024H277.1280000000001V120.464H311.336C311.8640000000001 120.48 312.48 120.488 313.104 120.488C318.568 120.488 323.888 119.88 329.008 118.736L328.528 118.824H329.008C338.672 116.672 345.792 108.176 345.792 98.008C345.792 97.92 345.792 97.84 345.792 97.752L345.792 97.768C345.792 85.424 338.16 78.864 323.016 78.184zM277.128 178.688H312.376C321.368 178.688 329.92 178.688 335.152 174.688C338.48 172.128 340.6 168.144 340.6 163.664C340.6 163.44 340.592 163.208 340.584 162.984L340.584 163.016C340.592 162.832 340.6 162.616 340.6 162.4C340.6 157.584 338.464 153.256 335.096 150.328L335.08 150.312C329.368 145.6 319.9359999999999 145.6 309.9439999999999 145.6H277.1359999999999zM416.552 204.104H392.216L360.248 129.256C358.528 130.792 356.632 132.224 354.632 133.504L354.456 133.616C362.904 139.976 368.312 149.984 368.312 161.256C368.312 161.768 368.296 162.28 368.2800000000001 162.784L368.288 162.712C368.296 162.88 368.296 163.08 368.296 163.272C368.296 175.12 363.136 185.768 354.944 193.088L354.904 193.12C342.312 203.952 326.256 203.952 315.584 203.952H250.048V121.592L212.848 203.952H188.552L123.656 52.096H154.664L200.744 162.712L249.576 52.096H298.648C321.384 52.096 326.624 52.096 333.976 53.136C352.48 56.088 362.224 65.48 367.304 75.112V75.112V75.112Q368.144 76.792 368.864 78.464L372.864 87.456L404.112 162.504L452.944 51.888H484.6319999999999zM231.448 88.776L194.32 110.072V67.432L231.448 88.776zM435.056 88.816L398.456 110.072V67.552L435.056 88.808zM449.88 186.2C448.376 184.696 446.296 183.768 444.008 183.768S439.64 184.696 438.136 186.2L438.136 186.2C436.656 187.648 435.736 189.672 435.736 191.912C435.736 191.968 435.736 192.032 435.736 192.088L435.736 192.08C435.736 196.648 439.44 200.352 444.008 200.352V200.352C448.576 200.328 452.272 196.616 452.272 192.04C452.272 189.768 451.36 187.704 449.88 186.2L449.88 186.2zM438.968 197.112C437.6880000000001 195.816 436.8880000000001 194.024 436.8880000000001 192.056S437.68 188.304 438.968 187L438.968 187C440.2000000000001 185.688 441.944 184.88 443.88 184.88C443.92 184.88 443.968 184.88 444.008 184.88L444 184.88C444.032 184.88 444.064 184.88 444.096 184.88C448.064 184.88 451.288 188.096 451.288 192.072S448.064 199.264 444.096 199.264C442.08 199.264 440.264 198.44 438.96 197.112L438.96 197.112zM443.848 196.672C443.9360000000001 196.68 444.048 196.68 444.152 196.68C444.928 196.68 445.672 196.56 446.376 196.344L446.32 196.36C447.152 196.008 447.728 195.2 447.728 194.256C447.728 194.184 447.7200000000001 194.112 447.7200000000001 194.032L447.7200000000001 194.04C447.728 194 447.728 193.952 447.728 193.904C447.728 193.216 447.384 192.608 446.848 192.248L446.8400000000001 192.24C446.4640000000001 192.016 446.016 191.856 445.5360000000001 191.8L445.5200000000001 191.8C446.1600000000001 191.736 446.7120000000001 191.408 447.0720000000001 190.928L447.0800000000001 190.92C447.4000000000001 190.528 447.5920000000001 190.032 447.6 189.48V188.16C447.5920000000001 188.088 447.5920000000001 188 447.5920000000001 187.92S447.6 187.752 447.6 187.664L447.6 187.672H446.36V188.752C446.3760000000001 188.848 446.384 188.96 446.384 189.064C446.384 189.776 446.048 190.416 445.528 190.824L445.5200000000001 190.832C445.0560000000001 191.04 444.5120000000001 191.16 443.9360000000001 191.16C443.8560000000001 191.16 443.7840000000001 191.16 443.704 191.152L443.712 191.152H442.352V187.552H440.752V196.744zM445.56 195.232C445.088 195.44 444.544 195.568 443.968 195.568C443.856 195.568 443.7440000000001 195.56 443.632 195.552L443.648 195.552H442.3680000000001V192.272H443.8480000000001C444.0800000000001 192.232 444.3360000000001 192.208 444.6080000000001 192.208S445.1360000000001 192.232 445.3920000000001 192.272L445.3680000000001 192.264C445.9120000000001 192.448 446.2960000000001 192.952 446.2960000000001 193.552C446.2960000000001 193.608 446.2880000000001 193.656 446.2880000000001 193.712L446.2880000000001 193.704C446.2960000000001 193.752 446.2960000000001 193.808 446.2960000000001 193.872C446.2960000000001 194.352 446.0560000000001 194.768 445.6880000000001 195.024L445.6800000000001 195.032z" />
    <glyph glyph-name="logo-BBDO"
      unicode="&#xEA67;"
      horiz-adv-x="816" d="M620.784 175.312C608.648 187.344 591.52 194.744 571.744 194.744C551.984 194.752 534.76 187.248 522.544 175.144C514.944 167.616 509.272 158.312 506.064 147.944C502.92 158.04 497.36 166.992 489.824 174.168C477.704 185.728 460.528 192.632 440.48 192.624H389.432V115.992C386.056 122.88 380.24 127.824 372.92 131.36C380.152 136.752 385.864 145.048 385.8 157.432V157.776C385.832 168.264 381.488 177.248 373.776 183.312C366.08 189.384 355.224 192.624 342.152 192.624H281.928V115.992C278.552 122.88 272.736 127.824 265.4239999999999 131.36C272.6479999999999 136.752 278.3599999999999 145.048 278.296 157.432V157.776C278.3279999999999 168.256 273.992 177.248 266.272 183.304C258.5759999999999 189.392 247.72 192.616 234.64 192.616H174.4239999999999V63.384H236.056C250.36 63.392 262.4799999999999 66.248 271.2559999999999 72.368C275.9199999999999 75.6 279.544 79.816 281.928 84.856V63.384H343.568C357.8719999999999 63.392 369.9919999999999 66.24 378.776 72.368C383.432 75.592 387.064 79.816 389.44 84.856V63.392H440.5199999999999C460.5759999999999 63.392 477.7359999999999 70.392 489.8559999999999 82.032C497.2959999999999 89.168 502.8079999999999 98.048 505.9599999999999 108.024C509.1199999999999 97.584 514.7679999999999 88.232 522.376 80.696C534.512 68.672 551.648 61.264 571.408 61.272H571.44C591.2 61.272 608.416 68.776 620.6320000000001 80.872S640.096 109.696 640.0880000000001 128V128.352C640.0960000000001 146.656 632.9440000000001 163.296 620.792 175.32zM206.728 162.944H230.576C235.9280000000001 162.96 239.784 161.848 242.064 160.192C244.32 158.52 245.384 156.488 245.432 153.2V152.848C245.36 149.08 244.136 147.096 241.5360000000001 145.384C238.8960000000001 143.712 234.4960000000001 142.728 228.8160000000001 142.736H206.728V162.952zM252.312 103.496C252.24 99.68 251.024 97.56 248.504 95.808C245.9520000000001 94.088 241.6960000000001 93.024 236.0480000000001 93.04H206.736V114.304H235.1600000000001C241.784 114.32 246.2160000000001 113.048 248.7280000000001 111.256C251.2240000000001 109.448 252.2560000000001 107.28 252.3120000000001 103.848V103.496zM314.2320000000001 162.944H338.0800000000001C343.4240000000001 162.952 347.2880000000001 161.84 349.5600000000001 160.184C351.8240000000001 158.52 352.8880000000001 156.48 352.9360000000001 153.2V152.856C352.8560000000001 149.072 351.6320000000001 147.096 349.0240000000001 145.384C346.3920000000001 143.712 341.9920000000001 142.728 336.3120000000001 142.752H314.2160000000001V162.952zM359.824 103.504C359.76 99.68 358.528 97.568 356.016 95.808C353.464 94.088 349.216 93.032 343.56 93.048H314.24V114.312H342.664C349.288 114.328 353.72 113.048 356.232 111.264C358.72 109.456 359.768 107.296 359.824 103.856V103.512zM474.728 127.648C474.568 107.216 461.304 93.912 440.48 93.76H422.456V162.248H440.48C461.256 162.096 474.568 148.448 474.728 128V127.656zM605.824 127.648C605.728 107.888 591.9359999999999 92.208 571.7439999999999 92.16C551.5919999999999 92.192 537.3919999999999 108.272 537.328 127.984V128.336C537.424 148.096 551.216 163.776 571.4 163.824C591.552 163.8 605.76 147.712 605.832 127.984V127.64z" />
    <glyph glyph-name="logo-amc"
      unicode="&#xEA68;"
      horiz-adv-x="512" d="M138.072 120.64C129.144 119.712 117.032 116.728 117.032 106.104C117.032 98.344 124.736 94.808 135.632 94.808C148.28 94.808 158.304 100.944 161.032 106.944C162.448 109.944 163.288 112.944 163.288 115.944V121.584C163.288 121.584 157.104 121.584 156.304 121.584C152.656 121.592 146.976 121.48 138.072 120.632zM47.752 224V32H464.248V224H47.752zM186.232 77.064H164.232L163.632 84.904C158.232 80.528 144.352 74.728 130.072 74.728C107.856 74.728 93.424 91.64 93.424 105.92C93.424 133.36 121.728 140.088 156.064 140.088C156.16 140.088 163.104 140.088 163.104 140.088S163.152 141.96 163.152 142.44C163.152 146.04 161.312 161.312 142.568 161.312C126.888 161.312 122.144 154.328 120.448 148.088H97.36C97.36 155.84 103.376 181.296 142.176 181.296C174.92 181.296 186.24 163.648 186.24 132.408V77.072zM286.872 77.064V151.648L266.1520000000001 77.064H244.1760000000001L223.5200000000001 151.648V77.064H199.6400000000001V178.824H236.1920000000001C236.1920000000001 178.824 253.4560000000001 113.736 255.1600000000001 105.68L274.1600000000001 178.824H310.68L310.6960000000001 77.064H286.8800000000001zM370.7440000000001 74.712C341.9040000000001 74.712 321.8 97.648 321.8 127.992C321.8 159.68 342.0560000000001 181.312 370.7440000000001 181.312C394.752 181.312 413.656 164.296 418.4960000000001 140.264H395.4640000000001C391.5840000000001 152 382.2240000000001 159.936 370.7360000000001 159.936C355.552 159.936 344.1200000000001 146.176 344.1200000000001 128S355.5520000000001 96.088 370.7360000000001 96.088C382.3120000000001 96.088 391.7040000000001 104.048 395.504 115.968H418.528C413.7920000000001 91.8 394.856 74.712 370.7440000000001 74.712z" />
    <glyph glyph-name="logo-benchmade-2"
      unicode="&#xEA69;"
      horiz-adv-x="512" d="M296.4 92.696C294.296 92.248 293.296 90.848 293.4 89.744C293.448 88.992 294.096 88.144 295.6 88.096C303.496 87.744 307.552 82.592 311.904 77.144C314.3519999999999 74.096 316.856 70.896 320.104 68.592L322.5519999999999 66.792C326.5519999999999 63.744 328.9999999999999 61.944 332.152 65.592C333.904 67.64 334.5039999999999 70.288 334.5039999999999 72.992C334.5039999999999 78.04 332.3519999999999 83.144 331.104 84.544C321.8 94.992 298.704 93.24 296.4079999999999 92.696zM289.248 83.304C288.552 83.104 288.048 82.608 287.848 81.8C287 78.2 292.4000000000001 69.048 296 65.8C300.504 61.8 306.4 46.152 308.104 41.448C309.504 37.496 311.952 32.944 314.152 33.048C315.048 33.096 315.704 33.848 316.048 35.352L316.896 38.352C318.7440000000001 44.448 321.5440000000001 53.704 317.5920000000001 56.8C314.8400000000001 58.952 309.2400000000001 64.4 304.7440000000001 68.752L298.7440000000001 74.448L296.192 77.848C294.24 80.752 292.04 84.096 289.24 83.296zM122.096 235.448V235.448V235.448zM123.6 239.352C122.648 238.656 122.2 237.456 122.152 235.456C122.152 235.456 122.152 235.408 122.152 235.408C122.152 231.808 132.104 214.16 134.552 213.456L135.504 213.208C148.304 209.808 150.6 208.456 150.856 207.96C151.304 206.856 152.76 205.408 153.856 205.76C155.304 206.16 154.904 208.864 154.76 209.76C153.312 219.112 132.808 238.208 128.256 239.512C126.056 240.16 124.608 240.112 123.608 239.36zM136.096 204.2C135.048 203.648 134.944 202.096 134.848 200.904C134.752 199.608 136.2 195.752 138.448 189.952L141.448 181.752C142.496 178.2 149.048 178.848 154.296 179.4C156.744 179.648 159.096 179.904 159.848 179.552C161.8 178.704 173.848 174.704 175.848 175.6C176.248 175.8 176.448 176.2 176.496 176.896C176.592 179.848 172.696 189.544 169.248 191.4C166.448 192.904 165.848 193 164.152 193.152L162 193.504C158.352 194.056 142.448 201.808 139.304 203.608C137.856 204.408 136.856 204.608 136.1040000000001 204.208zM188.304 182.152C187.704 181.2 188.904 179.4 189.808 178.504V178.504C191.504 176.8 209.904 152.504 210.312 143.904C210.464 139.904 210.96 137.952 213.264 137.104C213.264 137.104 213.712 136.904 213.712 136.904C215.664 136.152 218.616 135.056 220.96 137.456C223.264 139.808 220.608 144.504 218.264 148.704L217.416 150.208C216.216 152.456 214.064 155.056 211.768 157.856L205.52 166.104C201.216 172.256 193.12 181.152 190.424 182.256C189.328 182.704 188.624 182.656 188.328 182.16zM321.448 182.152C321.096 182.656 320.4 182.704 319.4 182.304C316.704 181.208 308.6 172.304 304.296 166.152L298.048 157.904C295.7440000000001 155.152 293.6 152.504 292.4 150.256L291.552 148.752C289.2 144.552 286.552 139.8 288.856 137.504C291.2079999999999 135.104 294.1599999999999 136.208 296.104 136.952C296.104 136.952 296.5519999999999 137.104 296.5519999999999 137.152C298.8559999999999 138 299.3519999999999 139.952 299.5039999999999 143.952C299.8559999999999 152.552 318.3039999999999 176.848 320.0079999999999 178.552V178.552C320.904 179.4 322.1119999999999 181.2 321.4559999999999 182.152zM160.648 168.704C159.296 168.256 158.552 167.552 158.296 166.656C157.744 164.608 160.144 161.952 162.848 158.856C165.496 155.856 168.544 152.456 168.896 149.456C169.248 146.304 173.2 144.208 176.4 143.008C183.848 140.208 195.648 139.16 198.8 142.008C200.8 143.808 201.352 144.56 199.704 148.608C196.752 155.808 189.104 156.312 184.008 156.656L181.36 156.856C179.712 157.056 177.312 159.304 174.808 161.656C170.456 165.808 165.56 170.456 160.656 168.704zM178.152 83.904C176.248 81.808 172.2 70.704 177.152 64.952C180.304 61.304 182.848 63.256 186.752 66.152L189.2 67.952C192.504 70.304 195 73.456 197.4 76.504C201.704 81.952 205.8 87.104 213.704 87.456C215.208 87.504 215.8 88.36 215.904 89.104C216 90.2 215 91.552 212.904 92.056C208.856 92.96 186.952 93.752 178.152 83.904zM213.848 78.048L211.248 74.648L205.4 69.096C200.848 64.696 195.152 59.192 192.4 57.048C188.448 53.896 191.248 44.696 193.096 38.6L193.944 35.6C194.344 34.096 194.944 33.352 195.848 33.296C198.048 33.2 200.448 37.744 201.896 41.696C203.096 45.048 209.296 61.848 213.992 66.048C217.64 69.296 222.992 78.4 222.144 82.048C221.944 82.848 221.496 83.352 220.744 83.552C217.992 84.304 215.792 81 213.84 78.048zM381.104 239C376.552 237.696 356.104 218.6 354.6 209.248C354.448 208.352 354.048 205.696 355.496 205.248C356.648 204.896 358.048 206.352 358.496 207.448C358.744 207.952 361.048 209.248 373.848 212.648L374.848 212.896C377.296 213.6 387.4 231.448 387.248 234.896C387.2 236.848 386.6959999999999 238.096 385.8 238.744C384.752 239.592 383.248 239.64 381.104 238.992zM374.504 200.4V200.4V200.4V200.4zM370.048 203.104C366.8 201.256 351 193.6 347.352 193L345.2 192.752C343.504 192.552 342.952 192.504 340.096 191C336.648 189.096 332.7440000000001 179.4 332.848 176.448C332.848 175.8 333.096 175.352 333.4960000000001 175.152C335.4960000000001 174.248 347.5440000000001 178.248 349.4960000000001 179.104C350.2480000000001 179.456 352.6 179.2 355.0480000000001 178.952C360.2960000000001 178.4 366.8480000000001 177.704 367.8960000000001 181.304L370.8480000000001 189.4C373.0480000000001 195.048 374.4960000000001 198.904 374.4960000000001 200.296C374.4960000000001 200.344 374.4960000000001 200.4 374.4960000000001 200.448C374.3920000000001 201.648 374.2960000000001 203.2 373.2480000000001 203.744C372.4960000000001 204.096 371.4480000000001 203.896 370.0480000000001 203.096zM335.352 161.2C332.848 158.848 330.504 156.6 328.848 156.4C328.848 156.4 326.2 156.152 326.2 156.152C321.152 155.8 313.4479999999999 155.304 310.5039999999999 148.104C308.8559999999999 144.056 309.3999999999999 143.256 311.2559999999999 141.6C314.5039999999999 138.696 326.3039999999999 139.696 333.7039999999999 142.504C336.9519999999999 143.704 340.8559999999999 145.856 341.2559999999999 148.952C341.6079999999999 151.952 344.6559999999999 155.352 347.3039999999999 158.352C350.056 161.448 352.4079999999999 164.104 351.904 166.152C351.656 167.104 350.904 167.752 349.552 168.248C344.6 169.952 339.704 165.296 335.352 161.2zM403.6960000000001 252.152C393.2480000000001 263.4 361.5920000000001 246.248 361.2960000000001 246.056C361.2960000000001 246.056 360.6960000000001 245.704 360.6960000000001 245.704C353.048 241.408 344.3920000000001 236.504 331.144 225.4C312.944 210.2 293.544 180 280.7440000000001 160.048C276.3440000000001 153.248 271.6960000000001 143.544 268.7440000000001 143.544C265.992 143.696 265.048 148.192 265.048 148.192S264.248 155.44 262.448 157.592C261.648 158.592 259.248 161.344 254.696 161.344S247.448 158.296 246.744 157.248C244.744 154.344 244.992 143.544 241.144 143.544C237.992 143.544 233.144 153.248 228.744 160.096C215.944 180.048 196.544 210.2 178.344 225.448C165.04 236.552 156.392 241.448 148.792 245.752L148.192 246.104C147.888 246.256 116.24 263.456 105.792 252.2C100.496 246.504 104.392 236.048 107.544 227.696L108.696 224.544L111.296 217.696C115.944 205.648 125.592 180.648 127.296 168.4C127.296 168.4 127.496 167.104 128.096 166.304C129.4 164.704 130.544 164.4 130.544 164.4C140.048 161.2 147.192 154.896 147.496 149.448C147.592 147.696 145.248 146.544 140.296 144.8C136.2 143.4 131.144 141.6 130.896 136.504C130.896 136.152 130.896 135.704 130.896 135.304H142.696C143 135.4 143.296 135.504 143.544 135.6C148.392 137.304 157.24 140.4 157.24 149.2C157.24 149.448 157.24 149.752 157.24 150C156.592 160.8 146.144 168.648 136.392 172.6C133.744 186.4 125.192 208.752 120.392 221.152L117.944 227.656L116.696 231.056C115.696 233.704 112.896 241.152 112.896 244.504C112.896 245.008 112.944 245.408 113.096 245.656C115.296 248.008 131.448 244.304 143.448 237.504C143.448 237.504 144.048 237.152 144.048 237.152C151.648 232.848 159.552 228.4 172.144 217.848C189.192 203.6 208.048 174.2 220.544 154.744C224.448 148.696 227.192 144.448 229.296 141.392C231.6960000000001 138.64 235.944 135.888 240.296 135.888C249.496 135.888 250.896 139.44 254.6 139.44S261.1040000000001 135.488 268.896 135.488C273.4960000000001 135.488 277 137.336 279.296 140.088C281.496 143.136 284.448 147.736 288.944 154.688C301.4480000000001 174.136 320.344 203.584 337.392 217.84C349.992 228.392 357.896 232.84 365.496 237.144L366.096 237.496C378.048 244.296 394.2 247.944 396.544 245.448C396.648 245.2 396.696 244.896 396.696 244.448C396.696 241.296 393.848 233.648 392.848 230.944L391.6 227.592L389.2 221.192C384.4 208.744 375.8 186.344 373.152 172.488C363.4 168.536 352.952 160.688 352.304 149.888C352.304 149.592 352.256 149.336 352.256 149.04C352.256 140.24 361.152 137.136 366.008 135.44C366.256 135.344 366.56 135.24 366.904 135.144H378.704C378.704 135.592 378.704 135.992 378.704 136.344C378.456 141.44 373.3520000000001 143.248 369.3040000000001 144.64C364.3520000000001 146.344 362.0000000000001 147.488 362.1040000000001 149.24C362.456 154.744 369.552 161.04 379.0560000000001 164.24C379.0560000000001 164.24 380.5600000000001 164.536 381.408 165.944C382.3040000000001 167.344 382.3040000000001 168.192 382.3040000000001 168.192C384.0000000000001 180.488 393.704 205.544 398.3040000000001 217.592L400.8560000000001 224.344C400.8560000000001 224.344 402.0080000000001 227.448 402.0080000000001 227.448C405.112 236 409.0080000000001 246.448 403.7040000000001 252.144zM338.896 84.696C337.648 82.392 337.2 80.344 337.2 78.496C337.2 76.248 337.848 74.344 338.352 72.696C338.904 71.048 339.352 69.6 339.352 67.648V67.6C339.352 57.448 337.704 55.848 335.904 52C333.8 51.8 329.952 51.248 326.656 47C323.808 43.304 323.704 39.6 323.656 36.6C323.608 35.048 323.608 33.6 323.2080000000001 32.096C320.2560000000001 21.048 315.9600000000001 13.544 313.312 10.792C309.1600000000001 16.096 299.9600000000001 32.744 294.712 46.696C287.816 64.944 281.36 82.144 268.408 79.848C262.456 78.8 258.1040000000001 75.048 255.856 69L254.904 65.904C254.856 65.704 254.7520000000001 65.4 254.7040000000001 65.208C254.6560000000001 65.408 254.5520000000001 65.712 254.5040000000001 65.904L253.5520000000001 69.056C251.3040000000001 75.104 246.9520000000001 78.856 241.0480000000001 79.904C228.0960000000001 82.208 221.6000000000001 65 214.7440000000001 46.752C209.4960000000001 32.752 200.2400000000001 16.056 196.0960000000001 10.8C193.4960000000001 13.496 189.1920000000001 21.048 186.2480000000001 32.152C185.8480000000001 33.656 185.8000000000001 35.104 185.8000000000001 36.656C185.7520000000001 39.656 185.6480000000001 43.352 182.8000000000001 47.056C179.4960000000001 51.304 175.704 51.856 173.5520000000001 52.008C171.7520000000001 55.808 169.8000000000001 57.408 169.8000000000001 67.608V67.656C169.8000000000001 69.56 170.2480000000001 71.008 170.8000000000001 72.704C171.304 74.304 171.952 76.208 171.952 78.456C171.952 80.304 171.504 82.408 170.256 84.656C166.56 91.304 159.608 92.656 154.0560000000001 93.456H138.96C139.912 90.608 140.7600000000001 88.456 141.512 87.456L143.416 85.856C145.816 84.76 148.568 84.352 151.464 83.952C156.664 83.256 160.216 82.6 161.712 79.904C162.408 78.656 162.36 78.256 161.512 75.704C160.864 73.752 160.0080000000001 71.104 160.0080000000001 67.656C160.0080000000001 53.904 164.0080000000001 48.256 166.16 45.256C168.0080000000001 42.656 170.808 42.456 172.312 42.304C173.76 42.208 174.216 42.152 175.064 41.056C175.912 40.008 175.968 39.008 176.016 36.408C176.064 34.56 176.112 32.2080000000001 176.816 29.608C179.464 19.608 186.32 2.208 195.2640000000001 0.104C199.2640000000001 -0.848 202.816 1.456 211.168 16.304C216.0160000000001 24.952 220.9200000000001 35.304 223.9200000000001 43.256C228.1200000000001 54.352 234.4240000000001 71.16 239.3680000000001 70.256C241.1200000000001 69.952 243.1200000000001 69.16 244.4160000000001 65.608C244.4160000000001 65.608 245.1680000000001 63.16 245.1680000000001 63.16C246.9200000000001 57.064 248.8640000000001 50.16 254.5200000000001 49.912H254.9200000000001C260.5680000000001 50.16 262.5680000000001 57.064 264.3200000000001 63.216L265.0160000000001 65.616C266.3200000000001 69.168 268.3200000000001 69.9680000000001 270.0640000000001 70.264C275.0160000000001 71.168 281.3120000000001 54.416 285.5120000000001 43.36C288.5600000000001 35.36 293.4080000000001 25.008 298.2640000000001 16.36C306.5680000000001 1.512 310.1600000000001 -0.7359999999999 314.1600000000001 0.1600000000001C323.1120000000001 2.2080000000001 330.0080000000001 19.664 332.6080000000001 29.664C333.3040000000001 32.264 333.3600000000001 34.568 333.4080000000001 36.4160000000001C333.4560000000001 39.0160000000001 333.5600000000001 40.0160000000001 334.3600000000001 41.0640000000001C335.2080000000001 42.1600000000001 335.7120000000001 42.216 337.1120000000001 42.312C338.6160000000001 42.464 341.4160000000001 42.664 343.2640000000001 45.264C345.4160000000001 48.264 349.1120000000001 53.912 349.1120000000001 67.6640000000001C349.1120000000001 71.1120000000001 348.2640000000001 73.816 347.6080000000001 75.7120000000001C346.7600000000001 78.264 346.7120000000001 78.6640000000001 347.4080000000001 79.912C348.9120000000001 82.608 352.4560000000001 83.264 357.6560000000001 83.96C360.5520000000001 84.36 363.3520000000001 84.7120000000001 365.7040000000001 85.864L367.6000000000001 87.464C368.3520000000001 88.512 369.2480000000001 90.664 370.2000000000001 93.512H355.0960000000001C349.5920000000001 92.712 342.5920000000001 91.312 338.8960000000002 84.712zM156.504 99.696V106.048H142.152V111.744H155.056V117.896H142.152V123.248H156.056V129.4H133.704V99.704H156.504zM168.848 99.696H175.4V116.544H175.496L187.648 99.696H194V129.4H187.448V113.696H187.352L176.752 129.4H168.848V99.696zM226.6 99.696V105.944H218.552C214.456 105.944 212.352 108.392 212.352 114.792C212.352 120.992 214.552 123.04 217.752 123.04H226.6V129.392H217.152C210.2 129.392 203.352 124.84 203.352 114.296C203.352 103.992 210.4 99.744 215.952 99.744H226.6zM236.504 99.696H245.008V111.544H253.456V99.696H261.96V129.4H253.456V118.2H245.008V129.4H236.504V99.696zM363.848 105.4H366.096C370.096 105.4 373.544 107.904 373.544 114.848C373.544 119.4 371.792 123.8 366.544 123.8H363.848V105.4zM355.352 129.4H367.352C377.248 129.4 382.504 123.2 382.504 114.8C382.504 108.152 379.552 99.704 366.608 99.704H355.36V129.408zM415.552 99.696V106.048H401.2000000000001V111.744H414.0480000000001V117.896H401.2000000000001V123.248H415.0960000000001V129.4H392.7440000000001V99.704H415.5440000000001zM327.504 112.448L330.2560000000001 120.8H330.36L332.9600000000001 112.448H327.5120000000001zM336.8 99.696H345.952L335.8 129.4H326.648L316.5440000000001 99.696H323.2960000000001L325.4000000000001 106.144H334.8L336.8 99.696zM274.152 99.8H280.656V120.8H280.76L287.656 99.8H292.704L299.3520000000001 120.8H299.4000000000001V99.8H307.9040000000001V129.4H295.8000000000001L291.2480000000001 115.248H291.1440000000001L286.4480000000001 129.4H274.0960000000001V99.8zM109.752 105.152H104.952V111.704H109.752C112.104 111.704 113.848 111.056 113.848 108.4C113.848 106.096 111.8 105.152 109.752 105.152zM109.296 124C111.344 124 113.592 123.304 113.592 120.848C113.592 118.344 111.496 117.648 109.296 117.648H104.944V124H109.296zM116.152 115C119.248 116 122.104 118.096 122.104 121.648C122.104 126.6 117.704 129.4 111.008 129.4H96.456V99.704H112.008C120.656 99.704 122.856 103.856 122.856 107.704C122.856 111.752 119.856 114.208 116.152 115.008zM236.096 22.952C236.096 19.152 238 17.448 240.6 17.448C243.152 17.448 245.104 19.144 245.104 22.952V35.704H242.008V22.656C242.008 21.056 241.456 20.408 240.656 20.408S239.304 21.056 239.304 22.656V35.704H236.208V22.952zM246.752 20.448V17.696H249.504V20.448H246.752zM250.848 18.304C251.752 17.856 252.8 17.552 254.048 17.552C256.496 17.552 258.496 19.456 258.496 22.248V22.296C258.496 24.344 257.944 25.448 255.496 28.296C253.992 30.048 253.744 30.344 253.744 31.2V31.248C253.744 32.248 254.496 32.8 255.344 32.8S256.744 32.552 257.744 31.952V35.2C256.992 35.6 256.24 35.752 254.944 35.752C252.44 35.752 250.592 33.9039999999999 250.592 31.056V31.008C250.592 28.808 251.496 27.656 253.592 25.2559999999999C255.096 23.5599999999999 255.344 22.9519999999999 255.344 22.104V22.056C255.344 20.96 254.592 20.504 253.696 20.504C252.848 20.504 252 20.856 250.848 21.504V18.304zM259.448 20.448V17.696H262.2V20.448H259.448zM269.048 24.096L268.096 30.048L267.096 24.096H269.048zM266.448 35.752H269.8L273.2 17.704H270.048L269.4479999999999 21.304H266.5999999999999L266.0479999999999 17.704H262.9999999999999L266.4479999999999 35.752zM274.048 20.448V17.696H276.8V20.448H274.048z" />
    </font>
</defs>
</svg>
